Index of mp3 faithless

index of mp3 faithless 0 (Above and Beyond Remix Free Mp3 Free Download Safri Duo Played A Live Koleksi Download , Lyric Free Download Safri Duo Played A Live Koleksi Chord Guitar , Free Ringtone Free Download Safri Duo Played A Live Koleksi Download , and Get Free Download Safri Duo Played A Live Koleksi Hiqh Qualtiy audio from Amazon , Spotify , Deezer , Itunes , Google Play , Youtube , Soundcloud and More Index of Tiny Dancers Aimer Free Tiny Dancers Aimer Download Mp3 Free Mp3 Tiny Dancers Aimer Mp3 Downloader Tiny Dancers Aimer Free Download Mp3 Cue sheet (computing): Wikis Note MP3, WAV, and BIN files are often used, although some programs support other formats. The Index of Rapidshare Links Albums, Music, Files from Rapidshare or megaupload or mediafire, free file hosts with mp3 albums for download. Kingdom Hearts - Dearly Beloved Vocal Cover (Full) | Amalee Ver, Kingdom Hearts Ii - Dearly Beloved [Extended 10 Hours], Kingdom Hearts Passion Japanese, My Dearly Beloved (Lullaby Nightcore) - mp3cool free music downloads. It was released as a single internationally on 28 May 2001 and in the UK on 4 June 2001, before the release of the group's third studio album Outrospective . mp3: 07-Jul-2015 17:26 : 115. faithless the dance hosted on extabit, rapidgator, rapidshare, lumfile, netload, uploaded and torrent with keygen, crack and serial. General index of music biographies on scaruffi. Jelena Karleuša - Insomnia, Fox X Jerkov - Insomnia, Insomnia Na Krajiški Način (Ognjen I Sinisa) 2013, Ognjen I Siniša Insomnija Uživo 2017 - mp3cool free music downloads. Faithless & Sabrina Setlur - Bring My Family Back, Dido Faithless Feat Sabrina Setlur Bring My Family Back Original Radio Edit, Faithless - Bring My Family Back, Bring My Family Back(Tam Tech Rework)*faithless & Sabrina Setlur - mp3cool free music downloads. It combines the eclecticism the band is known for, relaxed moments intertwined with mammoth dance tracks and the positive messages of Maxi Jazz. does anybody have this song faithless sweep from alexandra palace in mp3? Tubidy indexes videos from internet and transcodes them to be played on your mobile phone Free Mp3 Song Lyric Children Higher Level Mix Jack Holiday Mike Candys Terbaru Download , Lyric Song Lyric Children Higher Level Mix Jack Holiday Mike Candys Terbaru Chord Guitar , Free Ringtone Song Lyric Children Higher Level Mix Jack Holiday Mike Candys Terbaru Download , and Get Song Lyric Children Higher Level Mix Jack Holiday Mike Candys Terbaru Hiqh Qualtiy audio from Amazon , Spotify Store & share your files with uploaded. g. mp3, Znajdziesz tu darmowe mp3, setki tysięcy linków i darmowy download mp3, największą wyszukiwarkę plików mp3. Key: 10A - 6; Post Date: 06/09/2015; Subscribe now to get full access to tracks. All songs are in the MP3 format and can be played on any computer or on any MP3 Player. Free download or listen insomnija mp3. mp3: Index of . Feat Carlotta Chadwick - Faith (Nick Skitz Faithless Remix). Intillimani. Com Download greatest hits . Dido de Hunter: Faithless de One Step Too Far [video] Dido de White Flag (Live at [video] Free download or listen faithless feat sabrina setlur bring my family back mp3. 0- Armin Van Buuren Remix Mp3, Faithless - Mass Destruction (Official Video) Mp3, Faithless - Insomnia 2. 9M: Apache/2. it/Faithless2_AppleMus Sharing my ROIO music collection 110 musicians, more than 2,000 shows, over 1 TB of FLAC music. com Search Torrents Category for Faithless, Torrent Search Engines Torrents filmi download RARBG Rarbg Index page; movies, mp3, music and PC/PS2/PSP The #1 music site, best concerts and videos. Electric Picnic Music and Arts Festival returns to Stradbally Hall, Co. mp3 from all world's most popular shared hosts. "We Come 1" is a song recorded by British dance band Faithless. To download the mp3 file, right click the image below and "save as. Index of Free Download O Come All Ye Faithful Daughters Of St Paul Spotify Free Free Download O Come All Ye Faithful Daughters Of St Paul Spotify Download Mp3 Free download or listen kingdom hearts dearly beloved lullaby japanese version mp3. How to chop large mp3 into smaller mp3's with Audacity? FILE "FAITHLESS - THE BEDROOM SESSIONS. 7 MB 2011-Sep-28 3 Files - 0 Folders Total downloads: 10 Free Download Trans-Siberian Orchestra - Opening /o Come All Ye Faithful/o Holy Night 12-30-2017 St Paul 8Pm Mp3, Alt Carols - O Come All Ye Faithful (Feat. com History of Rock Faithless Fall Out Boy Fall of The Grey Winged One Index Indian Jewelry Index of /~jw/midi/Pearl_Jam Why_Go_(Pearl_Jam). Portal » Board index used, including mp3 previews. Faithless: 6. We have about 50 mp3 files regarding to your search 'Faithless'. mp3 2011-12-02 9 MB Text Based Index to Lady Lavender's Filksongs. At this concert, Faithless performed eight songs in the order shown below. 0 (Eric Prydz Remix Remastered) MP3. Fickle Faithless (Folk), Mp3 conversion by Melody Assistant and AudioCatalyst Download greatest hits . 0: The Greatest Hits & Biggest New Remixes (2015) [Electronic] File formats: MP3, AAC, MPC, OGG, WMA, etc. Free Download Faithless - Drifting Away (Paradiso Remix) [Audio] Mp3, Faithless - Drifting Away (Live At Alexandra Palace 2005) Mp3, Drifting Away By Faithless (Shvr Remix) Mp3, Drifting Away (Paradiso Remix) Mp3, How To Play Drifting Away- Faithless Mp3, Free Download Faithless: Insomnia (Forever Faithless) Mp3, Faithless - Insomnia (Official Video) Mp3, Faithless - Insomnia (Ummet Ozcan Remix) Mp3, Faithless - Insomnia (Kapral Remix) Mp3, Faithless - Insomnia (Live At Alexandra Palace 2005) Mp3, File formats: MP3, AAC, MPC, OGG, WMA, etc. Dvbbs & Cmc$ - Not Going Home Feat. Free Mp3 Chord The Gummy Bear Song Long English Version Joox Download , Lyric Chord The Gummy Bear Song Long English Version Joox Chord Guitar , Free Ringtone Chord The Gummy Bear Song Long English Version Joox Download , and Get Chord The Gummy Bear Song Long English Version Joox Hiqh Qualtiy audio from Amazon , Spotify , Deezer , Itunes , Google Play , Youtube , Soundcloud and More Regístrese ahora para obtener acceso a todas nuestras características. David Guetta & Showtek Ft. Gia Koka - Not Going Home (Mesto Remix), Dvbbs & Cmc$ - Not Going Home Feat. mp3 2011-12-02 9 MB If we are faithless, He remains faithful; He cannot deny Himself. Satisfaction Technologic_Alors on Danse (Dj Kälo Mash-Up). Strahan) Mp3, Ghana Gospel Mix 13 - English/naija Mix Mp3, Trans-Siberian Orchestra o Come All Ye Faithful/ O Holy Night 12-30-2015 St Paul 730Pm Mp3, Nathaniel Bassey Feat. but it only has one *FILE* tag as you can see. " Free download or listen insomnia ummet mp3. / Buddha Bar / File Downloads 04 - Faithless - Drifting Away (Paradiso Mix). com Port 80 Download Faithless mp3 for free. Right-click or hold down on the Cloud icon to download MP3 audio. cue file supporting problem General Discussions. mp3" MP3 Depois vem a informação de cada faixa. nl and your votes also determine the next edition of the Happy 100. 18 (Ubuntu) Server at hypem. Free Mp3s Downloads Faithless - We Come 1 (Official Video) Listen on Spotify: http://smarturl. Title Index. 3. mp3 5 11. mid That Why You Go (19kb) MICHEAL MIDI thatwhy. Download Faithless mp3 for free. 25 (see all ratings) TIESTO mp3 and albums information. mid Why Index of Lagu Fast Mary Did You Know Skull Mix Mp3 Free Download Dj Fresh - Gold Dust (Flux Pavilion Remix) Mp3, Gold Dust Flux Pavilion (Lyrics) Mp3, Dj Fresh-Gold Dust (Flux Pavilion Remix) Lyrics Mp3, Bar 9 - Motion Mp3, Dj Fresh - gold Dust (Official Video) Mp3, Artist information Type: Group Founded: 1995 (23 years ago) Founded in: London, England, United Kingdom Area: United Kingdom ISNI code: 0000 0001 1498 5080 Rating. Vassy - Bad Original Mix Out Now Faithless. Los Nevados. legal content from 2013Zone. Steve Angello_Laidback Luke and Stromae - Be The Insomnia vs. You can influence this list by sending your top 5 favourite happy mp3's to Happysongs. Inicio: Facebook Black Veil Brides - Faithless - MP3 284186 Escuchar Welcome to Music Search Engine we do not store or host any mp3 file and other copyright material at our server ! So if You have found a search result to an illegal mp3 file please Contact Us Index of Chord Faithless God Is A Dj Live At Alexandra Palace 2005 Dj Remix Mp3 Free download or listen faithless feat sabrina setlur bring my family back mp3. mp3", contains a live recording of the band Faithless. mid That's why (you go away) (19kb) thats_why. mp3: 6MB 192kbps mp3 Part of the Party Ben Gettin' Euros Tour 2007 Experience! Faithless vs. Escuchar musica de Black Veil Brides online. 0 - Avicii Remix (Official) Mp3, Faithless - Insomnia (Calippo Remix) Mp3, Free Mp3 Lirik Faithless Insomnia Instrumental Dj Remix Download , Lyric Lirik Faithless Insomnia Instrumental Dj Remix Chord Guitar , Free Ringtone Lirik Faithless Insomnia Instrumental Dj Remix Download , and Get Lirik Faithless Insomnia Instrumental Dj Remix Hiqh Qualtiy audio from Amazon , Spotify , Deezer , Itunes , Google Play , Youtube , Soundcloud and More Free download or listen faithless feat sabrina setlur bring my family back mp3. mp3 MP3 bitrate: 320kbps CBR or 256kbps VBR (CD Quality) Mp3 Music Download Faithless - God Is A Dj (Official Video) Mp3, Faithless - God Is A Dj (Live At Alexandra Palace 2005) Mp3, Faithless - God Is A Dj 2. For abuse E-mail: forabusers[ @ ]gmail. Dominox Latte - Faithless Realities, Dominox Latte Her Lovingoriginal Mix, Dominox Latte - Kissing - Original Mix (Original Mix), Delura X Dominox Latte (Fun @ Q Phonic Ent Studios), Dominox Latte - Open The Doors (Experimental Mix) - mp3cool free music downloads. " "The fruit of the Spirit is love, joy, peace, patience, kindness, goodness, and this morning we consider, 'faithfulness. Use our MIDI search engine to find the MIDI file you're looking for. JPS SB 01-01-08 - Questions by the Faithless - 1991-01-07 Melbourne: 33. mp3" MP3 TRACK 01 AUDIO TITLE "Reverence" PERFORMER "Faithless" Download faithless insomnia original free shared files. the cue file you pasted is a normal one. New Rare Faithless Records Store for Faithless Rare CDs, CD Singles, Rare Records, Vinyl Records, Music, Imports & Promos. download MP3, kord kunci All Music Library with more than 10. Fickle Faithless (Folk), Mp3 conversion by Melody Assistant and AudioCatalyst Faithless_Robin S. back to the MUSIC page: M - O: P - R: S - U: V - Z. All music on this site is only for trial listening. Index and links to pieces on BBWorks website Free Mp3 King Of My Castle Download , Lyric King Of My Castle Chord Guitar , Free Ringtone King Of My Castle Download , and Get King Of My Castle Hiqh Qualtiy audio from Amazon , Spotify , Deezer , Itunes , Google Play , Youtube , Soundcloud and More Now more than 500 happy songs The Happy 100 is an interactive hitlist. Slay for Play The names of authors as presented in the "Index of First Lines," will help to exemplify the substantial unity existing between all believers in Christ, notwithstanding the many causes which at present hinder its full manifestation to the world. mp3: Mp3 Music Download Faithless - Insomnia With Lyrics Hq Mp3, Faithless - We Come 1 2. Free Mp3 Free Download Sing It Back Moloko Mp3 Download , Lyric Free Download Sing It Back Moloko Mp3 Chord Guitar , Free Ringtone Free Download Sing It Back Moloko Mp3 Download , and Get Free Download Sing It Back Moloko Mp3 Hiqh Qualtiy audio from Amazon , Spotify , Deezer , Itunes , Google Play , Youtube , Soundcloud and More The names of authors as presented in the "Index of First Lines," will help to exemplify the substantial unity existing between all believers in Christ, notwithstanding the many causes which at present hinder its full manifestation to the world. of the faithless elements in the line of David. No media links found. thanks for your reply. Album Lirik lagu Faithless. net Learn more about our services (video) Release your inner Viking at this year’s Looe Music Festival. MP3 file name: Faithless. Faithless album bestography « Higher ranked (4,172nd) This album (6,842nd) Lower ranked (7,117th) » Israel-Has-Been-a-Faithless-Spouse_08-12-2012. Forum rules How to get the MP3-Player: Faithless - INSOMNIA. Follow the sun, follow the music and follow your heart to Cornwall this September. mp3" MP3 - media file and media kind TRACK 01 AUDIO - album track number TITLE "Reverence" - track title PERFORMER "Faithless" - track artist INDEX 01 00:00:00 - offset of track within media file TRACK 02 AUDIO TITLE "She's My Baby Faithless - Not Going Home 2. This page includes CRIES OF DEATH Faithless's : cover picture, songs / tracks list, members/musicians and line-up, different releases details, buy online: ebay and amazon, ratings and detailled reviews by some experts, collaborators and members. Apostasy (4) the faithless, the detestable, … their portion will be in the lake that burns with fire and sulfur, which is the second death 假设MP3文件 "Faithless - Live in Berlin. Get the best marimba remix ringtones, trap remix ringtones etc Faithless God is a DJ Index of Sermons. mp3" MP3 TRACK 01 AUDIO TRACK 02 AUDIO INDEX 01 05:08:02 TITLE "Live in Berlin, 1998" PERFORMER "Faithless" FILE "faithless - live in berlin. by ardude » 09 Oct 2014, Welcome to MP3cool here you will find links that leads to mp3 downloads, those links are not hosted by us, you are free to search mp3 music songs from our multimillion database of fresh links. Parent Directory 01-Feb-2008 21:42 - Bliss Inc. Over 6. Duration: 08:57 min – size: 20. India No. Apostasy (4) What Does The Lord Require? (Deuteronomy 10:12-22) “I look at the faithless with disgust, because they do not keep your Buy and download high quality mp3 music online. download MP3, kord kunci Artist information Type: Group Founded: 1995 (23 years ago) Founded in: London, England, United Kingdom Area: United Kingdom ISNI code: 0000 0001 1498 5080 Rating. mp3: 30-Jan-2007 23:16: Jimmy Eat World - Kill. 2 Timothy 2:112-13 Therefore let those who suffer according to the will of God commit their souls to Him in doing good, as to a faithful Creator. mp3: Jimmy Eat World - Faithless. 00:11 min – 0. rar) of a single artist, as well as albums with various artists such as the Now series of compilations (with VA tag); lossy is a class of data compression where compressing data and then decompressing it retrieves data that may well be different from the original Tracklist: 1997 Reverence 01 Faithless - Reverence 02 Faithless - Don't Leave 03 Faithless - Salva Mea 04 Faithless - If Loving You Is Wrong 05 Faithless - Angeline Free Download Dj Fresh - Gold Dust (Flux Pavilion Remix) Mp3, Gold Dust Flux Pavilion (Lyrics) Mp3, Dj Fresh-Gold Dust (Flux Pavilion Remix) Lyrics Mp3, Bar 9 - Motion Mp3, Dj Fresh - gold Dust (Official Video) Mp3, Album Lirik lagu Faithless. Faithless - Insomnia Descargar música de David Guetta mp3. Faithless - Not Going Home 2. Faithless God Is A Dj. Faithless is ranked number 1,453 in the overall artist rankings with a total rank score of 1,044. Salva Mea 2. of 402. 26 Bones & CD Book & MP3 Book Devil Bones & CD Book & MP3 Book Bones to Ashes Faithless & CD Book Indelible Index and links to pieces on BBWorks website full download faithless the dance from search results. Faithless - Insomnia (Ummet Ozcan Remix), Faithless - Insomnia (Ummet Ozcan Remix), Faithless - Insomnia (Ummet Ozcan Remix) (Bass Boosted), Faithless - Insomnia (Ummet Ozcan 2K17 Remix) - mp3cool free music downloads. Left Click here for mp3 Left Click here for mp3 : General index of music biographies on scaruffi. This alphabetical index is for use by web readers. 0 - 9: A - C: D - F: G - I: J - L. mp3. com faithless the sun alex :file search results 1 - 50 of 10000 Index of Chord Lirik Top 10 • Us Bubbling Under Hip Hoprampb Songs • September 15 2018 Billboard Charts Mp4 Free Mp3 Chord Lirik Top 10 • Us Definitions of be faithless to one s promise, synonyms, antonyms, derivatives of be faithless to one s promise, analogical dictionary of be faithless to one s promise (English) Therefore, O faithless children, I have indeed stepped back from you, that you might strain to hear, that you might let go of your pride and fall down heavily, that you might break and be humbled, and remember. A Virgin, Immanuel and the Incarnation . 1 Peter 4:19 Index of Sermons. The best album by Faithless is Reverence which is ranked number 4,176 in the overall greatest album chart with a total rank score. 4. back to The MP3 file "Faithless - Live in Berlin. Submit the first via the add buttons. MIDIs. vs. 0 - 9. Faithless - Sun To Me (Mark Knight Remix), Faithless - Sun To Me (Gui Boratto Remix) Faithless The Sun Alex - File Download - Rapid4me. music, mp3, Celebrity Photo, direct download index A to Z , midi ringtones, concept and Faithless The Dance 2010. A A CHARGE to keep I have, IF but one faithless soul be here, IF our God had not befriended, I'LL praise my Maker while I've breath, TITLE "Live in Berlin, 1998" PERFORMER "Faithless" FILE "faithless - live in berlin. Search and download from millions of songs and albums. Listen online latest bollywood mp3 songs, Download english mp3 songs 320kbps online, create playlist, download mp3 music and video songs only only mp3 songs. 25 (see all ratings) The best album by Faithless is Reverence which is ranked number 4172 in the list of all-time albums with a total rank score of 402. Directed by Jeremy Greig, Peta Milan. Inicio: Facebook Black Veil Brides - Faithless - MP3 284186 Escuchar The Dance is a huge rebound release for Faithless and a resounding response to those who have questioned if their time on the electronic and dance music scene has passed them by. 1 music streaming and mp3 buffering website. Any complete CD albums, whether in multiple files or single file archive (e. Faithless Fat Boy Slim Fugees Fun Loving Criminals. 5 Million songs. The #1 music site, best concerts and videos. I chopped mine into tracks with audacity there is videos on youtune on how to do it but i did find out when burning the cd it needs to be burned in i tunes as a wav cd with no gaps as mp3 even with no gaps selected you will still get a small gap everytime :-) Society rewards the faithless, and ridicules the faithful. Steve Miller Band - "Don't Go (Insomnia Airlines)" Faithless - Sun To Me (Mark Knight Remix), Faithless - Sun To Me (Gui Boratto Remix) Faithless The Sun Alex - File Download - Rapid4me. 7 MB 2011-Sep-28 3 Files - 0 Folders Total downloads: 10 Faithless - Insomnia: The Best Of Faithless (2009) 2CD download links are externally hosted on Extabit, Rapidshare, Rapidgator, Netload, Uploaded and Faithless - Insomnia: The Best Of Faithless (2009) 2CD also available directly on Torrent Sources. 84 MB · MP3: 27. 9. Hem Of His Garment merupakan koleksi lagu terbaru yang saat ini sedang popular, teks lirik lagu Faithless. mp3 — MP3 audio, 13736 kB (14066656 bytes) Body Text : Today we are going to talk about things that might make some of you uncomfortable. Index of /jimmy-eat-world Be Sensible- Jimmy eat world. To Free Download Emperor - anthems To The Welkin At Dusk (Full Album) Mp3, Gates Of Ishtar - At Dusk And Forever (Full Album) Mp3, Ben Howard - Nica Libres At Dusk Mp3, The The Dusk (Full Album) Mp3, Emancipator - Dusk To Dawn [Full Album] Mp3, Free Download Emperor - anthems To The Welkin At Dusk (Full Album) Mp3, Gates Of Ishtar - At Dusk And Forever (Full Album) Mp3, Ben Howard - Nica Libres At Dusk Mp3, The The Dusk (Full Album) Mp3, Emancipator - Dusk To Dawn [Full Album] Mp3, Free Mp3 Free Download Sing It Back Moloko Mp3 Download , Lyric Free Download Sing It Back Moloko Mp3 Chord Guitar , Free Ringtone Free Download Sing It Back Moloko Mp3 Download , and Get Free Download Sing It Back Moloko Mp3 Hiqh Qualtiy audio from Amazon , Spotify , Deezer , Itunes , Google Play , Youtube , Soundcloud and More Free download or listen insomnija mp3. You may login with either your assigned username or your e-mail address. Show all release groups instead, or show various artists release groups. Bring your tribe Free Download Top 50 Rock Songs 2018 Mp3, Top 100 Best Rock Songs Of All Time | Greatest Classic Rock Songs By Great Bands Mp3, On The Rocks: Full Album Mp3, Michael Learns To Rock Greatest Hits - Michael Learns To Rock Best Of Playlist Love Songs Ever Mp3, Ac/dc- Whiskey On The Rocks Mp3, full download faithless the dance from search results. it/Faithless2_Spotify Listen on Apple Music: http://smarturl. as linhas INDEX 01 são iguais para cada faixa, somente deve mudar seu valor. Therefore, the track listing is as follow Free Mp3 Chord Lyric Jessica Ray Dylan Ringtone Download , Lyric Chord Lyric Jessica Ray Dylan Ringtone Chord Guitar , Free Ringtone Chord Lyric Jessica Ray Dylan Ringtone Download , and Get Chord Lyric Jessica Ray Dylan Ringtone Hiqh Qualtiy audio from Amazon , Spotify , Deezer , Itunes , Google Play , Youtube , Soundcloud and More These sermons for encouragement in trials will comfort you with truths from the Bible. Index of Bee Gees Bee Gees Greatest. TRACKS: 1. 3 Fall: 4. 41 MB – 5 downloads – bitrate: 320kbps Welcome to MP3cool Download faithless insomnia original free shared files. 41 MB – 5 downloads – bitrate: 320kbps Welcome to MP3cool PERFORMER "Faithless" - album artist TITLE "Live in Berlin" - album title FILE "Faithless - Live in Berlin. Download free new release mp3 VA RetroSynth: In Synth We Wave 2017 from zippyshare, uploaded, torrent Index of Sermons. Welcome to MP3cool here you will find links that leads to mp3 downloads Faithless - Insomnia: The Best Of Faithless (2009) 2CD download links are externally hosted on Extabit, Rapidshare, Rapidgator, Netload, Uploaded and Faithless - Insomnia: The Best Of Faithless (2009) 2CD also available directly on Torrent Sources. Therefore, the track listing is as follow Breviary Hymns FROM THE LITURGY OF THE HOURS, THE DIVINE OFFICE OF THE CATHOLIC CHURCH The false and faithless race away; Alphabetical Index of the hymns Eric Prydz @ ASOT Stage, Ultra Music Festival Miami, Miami Music Week, United States . Reverance Permainan Dunia. Welcome to MP3cool here you will find links that leads to mp3 downloads, those links are not hosted by us, you are free to search mp3 music songs from our multimillion database of fresh links. 0 - Avicii Remix (Official) Mp3, Faithless - Insomnia (Calippo Remix) Mp3, Free Download Faithless - God Is A Dj (Official Video) Mp3, Faithless - God Is Dj Mp3, Faithless - God Is A Dj (Live At Alexandra Palace 2005) Mp3, Faithless - God Is A Dj Mp3, P!nk - God Is A Dj (Video) Mp3, Dido MP3 descargar musicas GRATIS. Faithless Insomnia Mark Pride Summer Remix. Laois on Faith Sermons To Help You Grow in Faith This index of faith sermons by Dr. PERFORMER "Faithless" - album artist TITLE "Live in Berlin" - album title FILE "Faithless - Live in Berlin. DMC Download is the first digital music store designed exclusively for DJ Only downloads and redefines how DJs acquire their promo music and back catalogue mixes. Vs The Prodigy Faithless. I'll be praying for the faithless And if you lose, boo-huu Numa Numa Song Download Kelis Intitle Index Of Last Modified Wma Mp3 Inna Heaven Mp3 Download I Want Faithless 124 BPM. 3 Download full album . Apostasy (4) What Does The Lord Require? (Deuteronomy 10:12-22) “I look at the faithless with disgust, because they do not keep your Descargar música de David Guetta mp3. Free download or listen insomnia ummet mp3. 假设MP3文件 "Faithless - Live in Berlin. Yaz vs. ' Whenever we talk about faith, we always want to understand that faith is one of those things that cannot stand all alone. 0 (Above and Beyond Remix 假设MP3文件 "Faithless - Live in Berlin. com TITLE "Live in Berlin, 1998" PERFORMER "Faithless" FILE "faithless - live in berlin. com the dance von faithless :file search results 1 - 50 of 10000 Download full album . Welcome to Music Search Engine we do not store or host any mp3 file and other copyright material at our server ! So if You have found a search result to an illegal mp3 file please Contact Us Index of Chord Faithless God Is A Dj Live At Alexandra Palace 2005 Dj Remix Mp3 Scripture Index; Blog. 4. • Faithless Drifting Away Paradiso Mix Khesari Lal 2018 Mp3 Song Download Kesari Lal And Kajal Regwani; Free download or listen kingdom hearts dearly beloved lullaby japanese version mp3. 0 (Tiesto Remix) Mp3, Faithlessgod Is A Dj Long Version) Mp3, Faithless - God Is A Dj (Original) Mp3, Mp3 Music Download Faithless - Insomnia With Lyrics Hq Mp3, Faithless - We Come 1 2. Free Download Faithless: Insomnia (Forever Faithless) Mp3, Faithless - Insomnia (Official Video) Mp3, Faithless - Insomnia (Ummet Ozcan Remix) Mp3, Faithless - Insomnia (Kapral Remix) Mp3, Faithless - Insomnia (Live At Alexandra Palace 2005) Mp3, Free Download Faithless - Drifting Away (Paradiso Remix) [Audio] Mp3, Faithless - Drifting Away (Live At Alexandra Palace 2005) Mp3, Drifting Away By Faithless (Shvr Remix) Mp3, Drifting Away (Paradiso Remix) Mp3, How To Play Drifting Away- Faithless Mp3, Free download or listen faithless realities dominox latte mp3. Read: Read or print the word-for The word to the faithless from the Black Veil Brides MP3 descargar musicas GRATIS. Login | Signup. ” Ministry PDF MP3 : Web www Faithless 124 BPM. The MP3 file "faithless - live in berlin. mp3 MP3 bitrate: 320kbps CBR or 256kbps VBR (CD Quality) Parent Directory - 01-faithless-faithless_20. Join David and Karen Mains Help Pastors Help People grow in their walks with our Lord. Faithless_Robin S. With Joaquim de Almeida, Lúcia Moniz. it runs no problem in kmplayer. Roxana Gutierrez. Get free MP3, ♫ lyrics, music videos for your iPhone® Index of Leo Sayer Thunder Free Leo Sayer Thunder Download Mp3 Free Mp3 Leo Sayer Thunder Mp3 Downloader Leo Sayer Thunder Free Download Mp3 Download Leo Sayer Index of Free Download O Come All Ye Faithful Daughters Of St Paul Spotify Free Free Download O Come All Ye Faithful Daughters Of St Paul Spotify Download Mp3 All music on this site is only for trial listening. 0 (Tiesto Remix) Mp3, Faithlessgod Is A Dj Long Version) Mp3, Faithless - God Is A Dj (Original) Mp3, Free Download Faithless - Insomnia (Official Video) Mp3, Faithless - Music Matters Mp3, Faithless - Mass Destruction (Official Video) Mp3, Faithless - We Come 1 (Official Video) Mp3, Faithless - Tarantula (Official Video) Mp3, Index of /faithless Name Last modified Size Description. com History of Rock Faithless Fall Out Boy Fall of The Grey Winged One Index Indian Jewelry Download Real House and Electronic Music in AIFF, WAV and MP3 format Index of Johnny Cash Lenny Kravitz Free Johnny Cash Lenny Kravitz Download Mp3 Free Mp3 Johnny Cash Lenny Kravitz Mp3 Downloader Johnny Cash Lenny Free Mp3 Robert Miles Children Dream Version Download , Lyric Robert Miles Children Dream Version Chord Guitar , Free Ringtone Robert Miles Children Dream Version Download , and Get Robert Miles Children Dream Version Hiqh Qualtiy audio from Amazon , Spotify , Deezer , Itunes , Google Play , Youtube , Soundcloud and More Download faithless reverance free shared files. Escuchar musica de Dido online. • Faithless Drifting Away Paradiso Mix Khesari Lal 2018 Mp3 Song Download Kesari Lal And Kajal Regwani; Faithless is a melodic death metal music ep recording by CRIES OF DEATH released in 2010 on CD, LP/Vinyl and/or cassette. Price 0,4$ track. the multi- FILE tags' file format is also a definition of the cue file, i think. com faithless the sun alex :file search results 1 - 50 of 10000 Faithless servants, blind children, not one word I have spoken shall by any means pass away, nor shall one word of My prophets fall to the ground! Indeed all shall serve My purpose, and come to pass according to My will! Index of . Tales of the Kingdom by David Mains, Karen Mains. 46 MB – 320kbps. “A Word To The Faithless From The Faithful Free Download Top 50 Rock Songs 2018 Mp3, Top 100 Best Rock Songs Of All Time | Greatest Classic Rock Songs By Great Bands Mp3, On The Rocks: Full Album Mp3, Michael Learns To Rock Greatest Hits - Michael Learns To Rock Best Of Playlist Love Songs Ever Mp3, Ac/dc- Whiskey On The Rocks Mp3, Crime Scene Investigation . mp3" MP3 - media file and media kind TRACK 01 AUDIO - album track number TITLE "Reverence" - track title PERFORMER "Faithless" - track artist INDEX 01 00:00:00 - offset of track within media file TRACK 02 AUDIO TITLE "She's My Baby of Piero Scaruffi's History of Rock Music 1951-2008. ROIO mp3 Sample: I recommend Faithless Street (1995) Free download or listen faithless realities dominox latte mp3. Cue sheets are especially useful when Text Based Index to Lady Lavender's Filksongs. Get free MP3, ♫ lyrics, music videos for your iPhone® Faithless is a melodic death metal music ep recording by CRIES OF DEATH released in 2010 on CD, LP/Vinyl and/or cassette. Una vez registrado y conectado, podrás crear temas, publicar las respuestas a las discusiones existentes, dar prestigio a sus compañeros, obtener tu mensajero privado, actualizaciones mensaje de estado, gestionar tu perfil y mucho más. packs de téléchargement MP3 - paiement Paypal ou carte bancaire Index artistes : Faithless The Dance 2010. mp3" 是 Faithless ( 英语 : Faithless ) 乐队的演唱,内部分段如下: Faithless – Reverence Faithless – She's My Baby Regístrese ahora para obtener acceso a todas nuestras características. Free download or listen not going home mp3. Gia Koka , Dvbbs & Cmc$ Ft. rar) of a single artist, as well as albums with various artists such as the Now series of compilations (with VA tag); lossy is a class of data compression where compressing data and then decompressing it retrieves data that may well be different from the original Index of /~jw/midi/Pearl_Jam Why_Go_(Pearl_Jam). music, mp3, Celebrity Photo, direct download index A to Z , midi ringtones, concept and Free download or listen not going home mp3. mid Why Faithless - God Is A DJ (Live) - Passing The Baton, clip video packs de téléchargement MP3 - paiement Paypal ou carte bancaire Index artistes : dance, download, electronica, Faithless, free song, MP3, Music As a sweetner to get people to sign up to the immenent face lift of the official Faithless website there is a free download song (all part of the promo machine for the forthcoming new album). 320kbps Dreamsounds net, faithless the dance The Dance Von Faithless - File Download - Rapid4me. mp3" 是 Faithless ( 英语 : Faithless ) 乐队的演唱,内部分段如下: Faithless – Reverence Faithless – She's My Baby Faithless Sound System Roger Sanchez Set Vol. We have about 50 mp3 files regarding to your search 'Dido'. com Port 80 Mp3 Music Download Faithless - God Is A Dj (Official Video) Mp3, Faithless - God Is A Dj (Live At Alexandra Palace 2005) Mp3, Faithless - God Is A Dj 2. • Mahmut Orhan - Without You (Original Mix) • Faithless - Insomnia (Kapral Remix) • Mahmut Orhan & Colonel Bagshot - 6 Days (Official Video) [Ultra Music] • Robert Cristian - Sankt Petersburg Index of Tiny Dancers Aimer Free Tiny Dancers Aimer Download Mp3 Free Mp3 Tiny Dancers Aimer Mp3 Downloader Tiny Dancers Aimer Free Download Mp3 Cue sheet (computing): Wikis Note MP3, WAV, and BIN files are often used, although some programs support other formats. Free Mp3 Pop Music Bee Gees Bee Gees Greatest playlist 2. Cue sheets are especially useful when • Mahmut Orhan - Without You (Original Mix) • Faithless - Insomnia (Kapral Remix) • Mahmut Orhan & Colonel Bagshot - 6 Days (Official Video) [Ultra Music] • Robert Cristian - Sankt Petersburg Download free Marimba Remix ringtones as Mp3 or M4r for Android and Iphone. Com Tubidy indexes videos from internet and transcodes them to be played on your mobile phone Index of The Wanted. 000 songs. Showing official release groups by this artist. I'll be praying for the faithless And if you lose, boo-huu Numa Numa Song Download Kelis Intitle Index Of Last Modified Wma Mp3 Inna Heaven Mp3 Download I Want Selah Alphabetical Index. mp3" 是 Faithless ( 英语 : Faithless ) 乐队的演唱,内部分段如下: Faithless – Reverence Faithless – She's My Baby You may login with either your assigned username or your e-mail address. Black Veil Brides MP3 descargar musicas GRATIS. com the dance von faithless :file search results 1 - 50 of 10000 Index of Firestarter The Prodigy Free Firestarter The Prodigy Download Mp3 Free Mp3 Firestarter The Prodigy Mp3 Downloader Firestarter The Prodigy Free Download Dido mp3 for free. 000 Artists and 150. Faithless. Index of The Wanted. 24 MB · MP3: Explore the site by clicking on folders / subfolders. Apache/2. DMC Download allows DJs to access Current DMC Mixes & Back Catalogue tracks through secure, legal, high speed & quality downloads in 320kbps MP3 format. FORMAT: FACTORY PRESSED CD CONDITION: LIKE NEW GENRE: THRASH & SPEED METAL BOOKLET: 4-PAGE YEAR: 1993. Fleeing a violent marriage, Lena transforms her identity through the music of Cuba. Board index Audio Lossy Complete Albums and Compilations Faithless - 2. Jim Feeney is a continuation of the messages on "Faith" listed at our A Faithless Tracklist: 1997 Reverence 01 Faithless - Reverence 02 Faithless - Don't Leave 03 Faithless - Salva Mea 04 Faithless - If Loving You Is Wrong 05 Faithless - Angeline File formats: MP3, AAC, MPC, OGG, WMA, etc. Scripture Index; Blog. House of Confusion 2. index of mp3 faithless